Wheelman - L'autista (2017).H264.italian.english.Ac3-5.1.multisub...

  • Category Movies
  • Type h.264/x264
  • Language English
  • Total size 1.2 GB
  • Uploaded By robbyrs
  • Downloads 540
  • Last checked 3 days ago
  • Date uploaded 1 week ago
  • Seeders 174
  • Leechers 28

Infohash : EF6EC2AB617AD46AA7E2CC2BB544B9ED7C401E46

Wheelman - L'autista (2017).H264.italian.english.Ac3-5.1.multisub.MIRCrew


NO FOUND ONLY ORIGINAL RELEASE





My release is always in double track audio italian and Original audio
for select it use VLC or dvd player home
not use wmp

L'autista - Wheelman (2017)







Titolo originale Wheelman
Lingua originale inglese
Paese di produzione Stati Uniti d'America
Anno 2017
Durata 92 min
Genere azione, thriller
Regia Jeremy Rush
Sceneggiatura Jeremy Rush
Produttore Joe Carnahan, Craig Chapman, Frank Grillo, Chady Eli Mattar, Myles Nestel
Produttore esecutivo Gianni Altobelli, Anders Erden, J. Todd Harris, Philip Krepela, George Parra, Art Robinson, Scott C. Silver, Lisa Wilson
Casa di produzione Solution Entertainment Group, WarParty Films
Distribuzione (Italia) Netflix
Fotografia Juan Miguel Azpiroz
Montaggio Padraic McKinley
Effetti speciali Gregory J. Corcoran
Musiche Brooke Blair, Will Blair
Scenografia Debbie Cutler
Costumi Virginia Johnson



Frank Grillo: autista
Caitlin Carmichael: Katie
Garret Dillahunt: Clayton
Wendy Moniz: Jessica
John Cenatiempo: Real Handler
Slaine: Jazz Handler



L'autista in fuga di una rapina finita male riceve una misteriosa telefonata con ordini sconvolgenti e deve mettere alla prova la sua abilità e la sua intelligenza...............



A getaway driver for a bank robbery realizes he has been double crossed and races to find out who betrayed him.











General
Unique ID : 179472145685716170748949652572641618340 (0x870513F4EBE4ECDAA3983233FEC6E9A4)
Complete name : Wheelman (2017).ita.eng.Ac3-5.1.multisub.MIRCrew.mkv
Format : Matroska
Format version : Version 2
File size : 1.18 GiB
Duration : 1h 22mn
Overall bit rate : 2 049 Kbps
Movie name : MIRCrew
Encoded date : UTC 2017-11-05T18:28:34Z
Writing application : mkvmerge v5.4.0 ('Piper') built on Mar 10 2012 13:34:39
Writing library : Lavf55.12.0

Video
ID : 1
Format : AVC
Format/Info : Advanced Video Codec
Format profile : [email protected]
Format settings, CABAC : Yes
Format settings, ReFrames : 4 frames
Muxing mode : Header stripping
Codec ID : V_MPEG4/ISO/AVC
Duration : 1h 22mn
Bit rate : 1 290 Kbps
Width : 720 pixels
Height : 304 pixels
Display aspect ratio : 2.35:1
Frame rate mode : Variable
Frame rate : 23.976 fps
Color space : YUV
Chroma subsampling : 4:2:0
Bit depth : 8 bits
Scan type : Progressive
Bits/(Pixel*Frame) : 0.246
Stream size : 732 MiB (61%)
Title : Wheelman (2017).ita.eng.Ac3-5.1.multisub.MIRCrew
Writing library : x264 core 142 r2479 dd79a61
Encoding settings : cabac=1 / ref=1 / deblock=1:-1:-1 / analyse=0x1:0x111 / me=hex / subme=2 / psy=1 / psy_rd=1.00:0.15 / mixed_ref=0 / me_range=16 / chroma_me=1 / trellis=0 / 8x8dct=0 / cqm=0 / deadzone=21,11 / fast_pskip=1 / chroma_qp_offset=0 / threads=3 / lookahead_threads=1 / sliced_threads=0 / nr=0 / decimate=1 / interlaced=0 / bluray_compat=0 / constrained_intra=0 / bframes=3 / b_pyramid=2 / b_adapt=1 / b_bias=0 / direct=1 / weightb=1 / open_gop=0 / weightp=1 / keyint=240 / keyint_min=24 / scenecut=40 / intra_refresh=0 / rc_lookahead=10 / rc=abr / mbtree=1 / bitrate=1290 / ratetol=1.0 / qcomp=0.60 / qpmin=0 / qpmax=69 / qpstep=4 / vbv_maxrate=20000 / vbv_bufsize=25000 / nal_hrd=none / filler=0 / ip_ratio=1.40 / aq=1:1.00
Language : Italian
Default : Yes
Forced : No
Color primaries : BT.709-5, BT.1361, IEC 61966-2-4, SMPTE RP177
Transfer characteristics : BT.709-5, BT.1361
Matrix coefficients : BT.709-5, BT.1361, IEC 61966-2-4 709, SMPTE RP177

Audio #1
ID : 2
Format : AC-3
Format/Info : Audio Coding 3
Mode extension : CM (complete main)
Muxing mode : Header stripping
Codec ID : A_AC3
Duration : 1h 22mn
Bit rate mode : Constant
Bit rate : 384 Kbps
Channel(s) : 6 channels
Channel positions : Front: L C R, Side: L R, LFE
Sampling rate : 48.0 KHz
Bit depth : 16 bits
Compression mode : Lossy
Delay relative to video : -5ms
Stream size : 226 MiB (19%)
Title : Ita Ac3 5.1
Language : Italian
Default : Yes
Forced : No

Audio #2
ID : 3
Format : AC-3
Format/Info : Audio Coding 3
Mode extension : CM (complete main)
Muxing mode : Header stripping
Codec ID : A_AC3
Duration : 1h 22mn
Bit rate mode : Constant
Bit rate : 384 Kbps
Channel(s) : 6 channels
Channel positions : Front: L C R, Side: L R, LFE
Sampling rate : 48.0 KHz
Bit depth : 16 bits
Compression mode : Lossy
Delay relative to video : -5ms
Stream size : 226 MiB (19%)
Title : Eng Ac3 5.1
Language : English
Default : No
Forced : No

Text #1
ID : 4
Format : ASS
Codec ID : S_TEXT/ASS
Codec ID/Info : Advanced Sub Station Alpha
Compression mode : Lossless
Title : English
Language : English
Default : No
Forced : No

Text #2
ID : 5
Format : ASS
Codec ID : S_TEXT/ASS
Codec ID/Info : Advanced Sub Station Alpha
Compression mode : Lossless
Title : German
Language : German
Default : No
Forced : No

Text #3
ID : 6
Format : ASS
Codec ID : S_TEXT/ASS
Codec ID/Info : Advanced Sub Station Alpha
Compression mode : Lossless
Title : Spanish
Language : Spanish
Default : No
Forced : No

Text #4
ID : 7
Format : ASS
Codec ID : S_TEXT/ASS
Codec ID/Info : Advanced Sub Station Alpha
Compression mode : Lossless
Title : French
Language : French
Default : No
Forced : No






Files:

  • Wheelman (2017).ita.eng.Ac3-5.1.multisub.MIRCrew.mkv (1.2 GB)

There are currently no comments. Feel free to leave one :)

Code:

  • udp://tracker.coppersurfer.tk:6969/announce
  • udp://tracker.opentrackr.org:1337/announce
  • udp://tracker.leechers-paradise.org:6969/announce
  • udp://p4p.arenabg.com:1337/announce
  • udp://p4p.arenabg.ch:1337/announce
  • udp://eddie4.nl:6969/announce
  • udp://tracker.leechers-paradise.org:6969/announce
  • udp://open.demonii.com:1337/announce
  • udp://tracker.pirateparty.gr:6969/announce
  • udp://p4p.arenabg.com:1337/announce