Kedi.2016.1080p.BluRay.x264-NODLABS

  • Category Movies
  • Type HD
  • Language English
  • Total size 6.6 GB
  • Uploaded By showstopper
  • Downloads 3
  • Last checked 2 days ago
  • Date uploaded 6 days ago
  • Seeders 1
  • Leechers 2

Kedi

Documentary

A profile of an ancient city and its unique people, seen through the eyes of the most mysterious and beloved animal humans have ever known, the Cat.

Infohash : 12F35DBEFB6DF0525E021E1871AEC4C63049E9C1

Kedi.2016.1080p.BluRay.x264-NODLABS

ImDb: http://www.imdb.com/title/tt4420704



Complete name : Kedi.2016.1080p.BluRay.x264-NODLABS.mkv
Format : Matroska
Format version : Version 4 / Version 2
File size : 6.56 GiB
Duration : 1 h 18 min
Overall bit rate : 11.9 Mb/s
Encoded date : UTC 2010-02-22 21:41:29
Writing application : no_variable_data
Writing library : no_variable_data

Video
ID : 1
Format : AVC
Format/Info : Advanced Video Codec
Format profile : [email protected]
Format settings, CABAC : Yes
Format settings, ReFrames : 4 frames
Codec ID : V_MPEG4/ISO/AVC
Duration : 1 h 18 min
Bit rate : 10.4 Mb/s
Width : 1 920 pixels
Height : 1 080 pixels
Display aspect ratio : 16:9
Frame rate mode : Constant
Frame rate : 23.976 (24000/1001) FPS
Color space : YUV
Chroma subsampling : 4:2:0
Bit depth : 8 bits
Scan type : Progressive
Bits/(Pixel*Frame) : 0.209
Stream size : 5.59 GiB (85%)
Writing library : x264 core 152 r2851 ba24899
Encoding settings : cabac=1 / ref=4 / deblock=1:-3:-3 / analyse=0x3:0x113 / me=umh / subme=8 / psy=1 / psy_rd=1.00:0.00 / mixed_ref=1 / me_range=32 / chroma_me=1 / trellis=1 / 8x8dct=1 / cqm=0 / deadzone=21,11 / fast_pskip=1 / chroma_qp_offset=-2 / threads=24 / lookahead_threads=4 / sliced_threads=0 / nr=0 / decimate=1 / interlaced=0 / bluray_compat=0 / constrained_intra=0 / bframes=3 / b_pyramid=2 / b_adapt=2 / b_bias=0 / direct=3 / weightb=1 / open_gop=0 / weightp=2 / keyint=240 / keyint_min=24 / scenecut=40 / intra_refresh=0 / rc_lookahead=50 / rc=2pass / mbtree=1 / bitrate=10375 / ratetol=1.0 / qcomp=0.60 / qpmin=0 / qpmax=69 / qpstep=4 / cplxblur=20.0 / qblur=0.5 / ip_ratio=1.40 / aq=3:0.80
Default : Yes
Forced : No
Statistics Tags Issue : no_variable_data 1970-01-01 00:00:00 / no_variable_data 2010-02-22 21:41:29
FromStats_BitRate : 10375166
FromStats_Duration : 01:18:58.109000000
FromStats_FrameCount : 113601
FromStats_StreamSize : 6144833560

Audio
ID : 2
Format : DTS
Format/Info : Digital Theater Systems
Mode : 16
Format settings, Endianness : Big
Codec ID : A_DTS
Duration : 1 h 18 min
Bit rate mode : Constant
Bit rate : 1 509 kb/s
Channel(s) : 6 channels
Channel positions : Front: L C R, Side: L R, LFE
Sampling rate : 48.0 kHz
Frame rate : 93.750 FPS (512 spf)
Bit depth : 24 bits
Compression mode : Lossy
Stream size : 852 MiB (13%)
Language : Turkish
Default : Yes
Forced : No
Statistics Tags Issue : no_variable_data 1970-01-01 00:00:00 / no_variable_data 2010-02-22 21:41:29
FromStats_BitRate : 1509000
FromStats_Duration : 01:18:58.112000000
FromStats_FrameCount : 444198
FromStats_StreamSize : 893726376

Text #1
ID : 3
Format : UTF-8
Codec ID : S_TEXT/UTF8
Codec ID/Info : UTF-8 Plain Text
Title : Forced
Language : English
Default : Yes
Forced : Yes
Statistics Tags Issue : no_variable_data 1970-01-01 00:00:00 / no_variable_data 2010-02-22 21:41:29
FromStats_BitRate : 39
FromStats_Duration : 01:14:36.138000000
FromStats_FrameCount : 526
FromStats_StreamSize : 22370

Text #2
ID : 4
Format : UTF-8
Codec ID : S_TEXT/UTF8
Codec ID/Info : UTF-8 Plain Text
Language : English
Default : No
Forced : No
Statistics Tags Issue : no_variable_data 1970-01-01 00:00:00 / no_variable_data 2010-02-22 21:41:29
FromStats_BitRate : 39
FromStats_Duration : 01:14:35.971000000
FromStats_FrameCount : 530
FromStats_StreamSize : 22371

Text #3
ID : 5
Format : UTF-8
Codec ID : S_TEXT/UTF8
Codec ID/Info : UTF-8 Plain Text
Title : SDH
Language : English
Default : No
Forced : No
Statistics Tags Issue : no_variable_data 1970-01-01 00:00:00 / no_variable_data 2010-02-22 21:41:29
FromStats_BitRate : 41
FromStats_Duration : 01:18:07.641000000
FromStats_FrameCount : 637
FromStats_StreamSize : 24354

Menu
00:00:00.000 : en:00:00:00.000
00:02:07.085 : en:00:02:07.085
00:08:49.738 : en:00:08:49.738
00:14:47.386 : en:00:14:47.386
00:17:44.021 : en:00:17:44.021
00:22:28.889 : en:00:22:28.889
00:26:41.517 : en:00:26:41.517
00:32:07.008 : en:00:32:07.008
00:34:54.801 : en:00:34:54.801
00:41:26.526 : en:00:41:26.526
00:44:21.951 : en:00:44:21.951
00:47:45.821 : en:00:47:45.821
00:56:24.089 : en:00:56:24.089
01:06:13.469 : en:01:06:13.469
01:09:02.847 : en:01:09:02.847
01:16:39.678 : en:01:16:39.678






Click To View Screenshot

Click To View Screenshot

Click To View Screenshot

Files:

Kedi.2016.1080p.BluRay.x264-NODLABS
  • Kedi.2016.1080p.BluRay.x264-NODLABS.mkv (6.6 GB)
  • kedi.2016.1080p.bluray.x264-nodlabs.nfo (18.1 KB)

There are currently no comments. Feel free to leave one :)

Code:

  • udp://tracker.coppersurfer.tk:6969/announce
  • udp://tracker.pirateparty.gr:6969/announce
  • udp://shadowshq.yi.org:6969/announce
  • udp://eddie4.nl:6969/announce
  • udp://tracker.leechers-paradise.org:6969/announce
  • udp://tracker.opentrackr.org:1337/announce
  • udp://p4p.arenabg.ch:1337/announce
  • udp://p4p.arenabg.com:1337/announce
  • udp://9.rarbg.me:2710/announce
  • udp://9.rarbg.to:2710/announce
  • udp://ipv4.tracker.harry.lu:80/announce
  • udp://tracker.grepler.com:6969/announce
  • udp://public.popcorn-tracker.org:6969/announce
  • udp://tracker.opentrackr.org:1337/announce
  • udp://tracker.zer0day.to:1337/announce