Logan.Lucky.2017.MULTI.1080p.BluRay.x264-VENUE

  • Category Movies
  • Type HD
  • Language English
  • Total size 8.8 GB
  • Uploaded By showstopper
  • Downloads 23
  • Last checked 1 day ago
  • Date uploaded 5 days ago
  • Seeders 6
  • Leechers 5

Logan Lucky

ActionCrimeComedy

Trying to reverse a family curse, brothers Jimmy and Clyde Logan set out to execute an elaborate robbery during the legendary Coca-Cola 600 race at the Charlotte Motor Speedway.

Infohash : F16F502C856A6E1CCFC0704FCD09AAFD1F07BEF3

Logan.Lucky.2017.MULTI.1080p.BluRay.x264-VENUE

ImDb: http://www.imdb.com/title/tt5439796



Complete name : logan.lucky.2017.multi.1080p.bluray.x264-venue.mkv
Format : Matroska
Format version : Version 2
File size : 8.75 GiB
Duration : 1 h 59 min
Overall bit rate : 10.5 Mb/s
Encoded date : UTC 2017-11-15 06:26:36
Writing application : mkvmerge v10.0.0 ('To Drown In You') 64bit
Writing library : libebml v1.3.4 + libmatroska v1.4.5

Video
ID : 1
Format : AVC
Format/Info : Advanced Video Codec
Format profile : [email protected]
Format settings, CABAC : Yes
Format settings, ReFrames : 5 frames
Codec ID : V_MPEG4/ISO/AVC
Duration : 1 h 59 min
Bit rate : 8 245 kb/s
Width : 1 920 pixels
Height : 808 pixels
Display aspect ratio : 2.40:1
Frame rate mode : Constant
Frame rate : 23.976 (24000/1001) FPS
Color space : YUV
Chroma subsampling : 4:2:0
Bit depth : 8 bits
Scan type : Progressive
Bits/(Pixel*Frame) : 0.222
Stream size : 6.85 GiB (78%)
Writing library : x264 core 152 r2851 ba24899
Encoding settings : cabac=1 / ref=5 / deblock=1:0:0 / analyse=0x3:0x113 / me=umh / subme=7 / psy=1 / psy_rd=1.00:0.00 / mixed_ref=1 / me_range=16 / chroma_me=1 / trellis=1 / 8x8dct=1 / cqm=0 / deadzone=21,11 / fast_pskip=1 / chroma_qp_offset=-2 / threads=25 / lookahead_threads=4 / sliced_threads=0 / nr=0 / decimate=1 / interlaced=0 / bluray_compat=0 / constrained_intra=0 / bframes=3 / b_pyramid=2 / b_adapt=1 / b_bias=0 / direct=3 / weightb=1 / open_gop=0 / weightp=2 / keyint=240 / keyint_min=23 / scenecut=40 / intra_refresh=0 / rc_lookahead=50 / rc=2pass / mbtree=1 / bitrate=8245 / ratetol=1.0 / qcomp=0.60 / qpmin=0 / qpmax=69 / qpstep=4 / cplxblur=20.0 / qblur=0.5 / vbv_maxrate=62500 / vbv_bufsize=78125 / nal_hrd=none / filler=0 / ip_ratio=1.40 / aq=1:1.00
Default : Yes
Forced : No

Audio #1
ID : 2
Format : DTS
Format/Info : Digital Theater Systems
Mode : 16
Format settings, Endianness : Big
Codec ID : A_DTS
Duration : 1 h 59 min
Bit rate mode : Constant
Bit rate : 768 kb/s
Channel(s) : 6 channels
Channel positions : Front: L C R, Side: L R, LFE
Sampling rate : 48.0 kHz
Frame rate : 93.750 FPS (512 spf)
Bit depth : 24 bits
Compression mode : Lossy
Stream size : 654 MiB (7%)
Language : French
Default : Yes
Forced : No

Audio #2
ID : 3
Format : DTS
Format/Info : Digital Theater Systems
Mode : 16
Format settings, Endianness : Big
Codec ID : A_DTS
Duration : 1 h 59 min
Bit rate mode : Constant
Bit rate : 1 509 kb/s
Channel(s) : 6 channels
Channel positions : Front: L C R, Side: L R, LFE
Sampling rate : 48.0 kHz
Frame rate : 93.750 FPS (512 spf)
Bit depth : 24 bits
Compression mode : Lossy
Stream size : 1.25 GiB (14%)
Language : English
Default : No
Forced : No

Text #1
ID : 4
Format : UTF-8
Codec ID : S_TEXT/UTF8
Codec ID/Info : UTF-8 Plain Text
Duration : 1 h 57 min
Bit rate : 3 b/s
Count of elements : 93
Stream size : 2.91 KiB (0%)
Language : French
Default : Yes
Forced : Yes

Text #2
ID : 5
Format : UTF-8
Codec ID : S_TEXT/UTF8
Codec ID/Info : UTF-8 Plain Text
Duration : 1 h 58 min
Bit rate : 66 b/s
Count of elements : 1479
Stream size : 57.4 KiB (0%)
Language : French
Default : No
Forced : No

Menu
00:00:00.000 : en:00:00:00.000
00:05:41.800 : en:00:05:41.800
00:07:33.203 : en:00:07:33.203
00:10:40.932 : en:00:10:40.932
00:16:24.025 : en:00:16:24.025
00:21:23.282 : en:00:21:23.282
00:29:08.747 : en:00:29:08.747
00:36:03.703 : en:00:36:03.703
00:41:49.424 : en:00:41:49.424
00:47:11.078 : en:00:47:11.078
00:50:08.881 : en:00:50:08.881
00:54:40.527 : en:00:54:40.527
00:57:27.152 : en:00:57:27.152
00:59:16.470 : en:00:59:16.470
01:04:37.290 : en:01:04:37.290
01:07:27.877 : en:01:07:27.877
01:12:12.995 : en:01:12:12.995
01:17:50.249 : en:01:17:50.249
01:19:20.422 : en:01:19:20.422
01:24:02.913 : en:01:24:02.913
01:28:33.099 : en:01:28:33.099
01:32:41.514 : en:01:32:41.514
01:42:27.433 : en:01:42:27.433
01:46:07.653 : en:01:46:07.653
01:50:50.936 : en:01:50:50.936
01:54:55.263 : en:01:54:55.263






Click To View Screenshot

Click To View Screenshot

Click To View Screenshot

Files:

Logan.Lucky.2017.MULTI.1080p.BluRay.x264-VENUE
  • logan.lucky.2017.multi.1080p.bluray.x264-venue.mkv (8.8 GB)
  • logan.lucky.2017.multi.1080p.bluray.x264-venue.nfo (0.3 KB)

There are currently no comments. Feel free to leave one :)

Code:

  • udp://tracker.coppersurfer.tk:6969/announce
  • udp://tracker.pirateparty.gr:6969/announce
  • udp://shadowshq.yi.org:6969/announce
  • udp://eddie4.nl:6969/announce
  • udp://tracker.leechers-paradise.org:6969/announce
  • udp://tracker.opentrackr.org:1337/announce
  • udp://p4p.arenabg.ch:1337/announce
  • udp://p4p.arenabg.com:1337/announce
  • udp://9.rarbg.me:2710/announce
  • udp://9.rarbg.to:2710/announce
  • udp://ipv4.tracker.harry.lu:80/announce
  • udp://tracker.grepler.com:6969/announce
  • udp://public.popcorn-tracker.org:6969/announce
  • udp://tracker.opentrackr.org:1337/announce
  • udp://tracker.zer0day.to:1337/announce