Marvels.The.Punisher.Season.1.S01.720p.WEB-DL.x265-HETeam

  • Category TV
  • Type HEVC/x265
  • Language English
  • Total size 3.6 GB
  • Uploaded By Crazy4TV
  • Downloads 68479
  • Last checked 41 minutes ago
  • Date uploaded 3 weeks ago
  • Seeders 2945
  • Leechers 1849

Infohash : DDFC6A1AF58BEB4CDB05DD1BD8B51755B790AE2F





MediaInfo :

Video
ID : 1
Format : HEVC
Format/Info : High Efficiency Video Coding
Format profile : [email protected]@Main
Codec ID : V_MPEGH/ISO/HEVC
Duration : 51 min 23 s
Bit rate : 648 kb/s
Width : 1 280 pixels
Height : 720 pixels
Display aspect ratio : 16:9
Frame rate mode : Constant
Frame rate : 23.976 (24000/1001) FPS
Color space : YUV
Chroma subsampling : 4:2:0
Bit depth : 8 bits
Bits/(Pixel*Frame) : 0.029
Stream size : 238 MiB (88%)


Audio
ID : 2
Format : Opus
Codec ID : A_OPUS
Duration : 51 min 23 s
Bit rate : 85.6 kb/s
Channel(s) : 2 channels
Channel positions : Front: L R
Sampling rate : 48.0 kHz
Frame rate : 50.000 FPS (960 SPF)
Compression mode : Lossy
Delay relative to video : -7 ms
Stream size : 31.5 MiB (12%)


Text
ID : 3
Format : UTF-8
Codec ID : S_TEXT/UTF8
Codec ID/Info : UTF-8 Plain Text
Duration : 49 min 7 s
Bit rate : 69 b/s
Count of elements : 730
Stream size : 25.0 KiB (0%)



Screens :








Files:

Marvels.The.Punisher.Season.1.S01.720p.WEB-DL.x265-HETeam
  • Marvels.The.Punisher.S01E03.720p.WEB-DL.x265-HETeam.mkv (304.1 MB)
  • Marvels.The.Punisher.S01E02.720p.WEB-DL.x265-HETeam.mkv (301.7 MB)
  • Marvels.The.Punisher.S01E01.720p.WEB-DL.x265-HETeam.mkv (270.6 MB)
  • Marvels.The.Punisher.S01E04.720p.WEB-DL.x265-HETeam.mkv (260.3 MB)
  • Marvels.The.Punisher.S01E05.720p.WEB-DL.x265-HETeam.mkv (290.3 MB)
  • Marvels.The.Punisher.S01E06.720p.WEB-DL.x265-HETeam.mkv (288.6 MB)
  • Marvels.The.Punisher.S01E07.720p.WEB-DL.x265-HETeam.mkv (258.5 MB)
  • Marvels.The.Punisher.S01E08.720p.WEB-DL.x265-HETeam.mkv (280.5 MB)
  • Marvels.The.Punisher.S01E09.720p.WEB-DL.x265-HETeam.mkv (284.2 MB)
  • Marvels.The.Punisher.S01E10.720p.WEB-DL.x265-HETeam.mkv (260.0 MB)
  • Marvels.The.Punisher.S01E11.720p.WEB-DL.x265-HETeam.mkv (276.3 MB)
  • Marvels.The.Punisher.S01E12.720p.WEB-DL.x265-HETeam.mkv (272.0 MB)
  • Marvels.The.Punisher.S01E13.720p.WEB-DL.x265-HETeam.mkv (290.7 MB)
  • Read Me.txt (0.1 KB)

Comments

Code:

  • udp://9.rarbg.me:2710/announce