The Foreigner 2017 720p HC HDRip x264 Dual Audio [Hindi (Cleaned)...

  • Category Movies
  • Type Dubs/Dual Audio
  • Language Hindi
  • Total size 1,007.3 MB
  • Uploaded By moviezworldz
  • Downloads 35886
  • Last checked 11 minutes ago
  • Date uploaded 1 week ago
  • Seeders 708
  • Leechers 266

The Foreigner

ThrillerAction

Quan is a humble London businessman whose long-buried past erupts in a revenge-fueled vendetta when the only person left for him to love -- his teenage daughter -- dies in a senseless act of politically motivated terrorism. His relentless search to find the terrorists leads to a cat-and-mouse conflict with a British government official whose own past may hold the clues to the identities of the elusive killers.

Infohash : A24707823AEFBF96B4627BE6EBBFF1DE845CA48E




General
Format : Matroska
Format version : Version 4 / Version 2
File size : 1 007 MiB
Duration : 1 h 52 min
Overall bit rate : 1 254 kb/s

Video
ID : 1
Format : AVC
Format/Info : Advanced Video Codec
Format profile : [email protected]
Format settings : CABAC / 8 Ref Frames
Format settings, CABAC : Yes
Format settings, RefFrames : 8 frames
Codec ID : V_MPEG4/ISO/AVC
Duration : 1 h 52 min
Bit rate : 1 060 kb/s
Width : 1 280 pixels
Height : 528 pixels
Display aspect ratio : 2.40:1
Frame rate mode : Constant
Frame rate : 24.000 FPS
Color space : YUV
Chroma subsampling : 4:2:0
Bit depth : 8 bits
Scan type : Progressive
Bits/(Pixel*Frame) : 0.065
Stream size : 851 MiB (84%)
Writing library : x264 core 148 r2708 86b7198
Default : Yes
Forced : No
Color range : Limited
Color primaries : BT.709
Transfer characteristics : BT.709
Matrix coefficients : BT.709

Audio #1
ID : 2
Format : AAC
Format/Info : Advanced Audio Codec
Format profile : LC
Codec ID : A_AAC-2
Duration : 1 h 52 min
Bit rate : 128 kb/s
Channel(s) : 2 channels
Channel positions : Front: L R
Sampling rate : 44.1 kHz
Frame rate : 43.066 FPS (1024 SPF)
Compression mode : Lossy
Stream size : 103 MiB (10%)
Language : Hindi
Default : Yes
Forced : No

Audio #2
ID : 3
Format : AAC
Format/Info : Advanced Audio Codec
Format profile : HE-AAC / LC
Format settings : Explicit
Codec ID : A_AAC-2
Duration : 1 h 52 min
Bit rate : 64.0 kb/s
Channel(s) : 2 channels
Channel positions : Front: L R
Sampling rate : 48.0 kHz / 24.0 kHz
Frame rate : 23.438 FPS (1024 SPF)
Compression mode : Lossy
Delay relative to video : 31 ms
Stream size : 51.4 MiB (5%)
Language : English
Default : No
Forced : No













Files:

The Foreigner 2017 720p HC HDRip x264 Dual Audio [Hindi (Cleaned) - English]
  • The Foreigner 2017 720p HC HDRip x264 Dual Audio [Hindi (Cleaned) - English].mkv (1,007.3 MB)

Comments

Code:

  • http://ipv4.tracker.harry.lu/announce
  • http://ipv4.tracker.harry.lu:80/announce
  • http://open.kickasstracker.com/announce
  • http://open.kickasstracker.com:443/announce
  • udp://tracker.coppersurfer.tk:6969/announce
  • udp://tracker.coppersurfer.tk:80/announce
  • udp://tracker.leechers-paradise.org:6969/announce
  • udp://tracker.openbittorrent.com:80/announce
  • udp://tracker.zer0day.to:1337/announce
  • http://82.209.230.66/announce
  • http://163.172.180.68/announce
  • udp://eddie4.nl:6969/announce
  • udp://explodie.org:6969/announce
  • udp://9.rarbg.to:2720/announce
  • udp://tracker.coppersurfer.tk:6969