Gook 2017 (1080p Bluray x265 HEVC 10bit AAC 5.1 Tigole) [UTR]

  • Category Movies
  • Type HEVC/x265
  • Language English
  • Total size 3.1 GB
  • Uploaded By UTRplus
  • Downloads 187
  • Last checked 42 minutes ago
  • Date uploaded 1 week ago
  • Seeders 11
  • Leechers 2

Gook

Drama

Eli and Daniel, two Korean American brothers who own a struggling women's shoe store, have an unlikely friendship with 11-year-old Kamilla. On the first day of the 1992 L.A. riots, the trio must defend their store—and contemplate the meaning of family, their personal dreams and the future.

Infohash : 1160D73F6FE0B0C50031A185112A7A4A4B8E4D4E



Gook 2017 in 1080p, encoded with x265 in HEVC and AAC 5.1 English, with subtitle!
Encoded using the time consuming 2 pass, 10 bit color at 4250 kbps, from a Blu-ray source, for the highest quality possible.



Media Information

Code:

General
Format : Matroska
Format version : Version 4 / Version 2
File size : 3.13 GiB
Duration : 1 h 35 min
Overall bit rate : 4 715 kb/s
Movie name : Gook
Encoded date : UTC 2017-12-03 11:20:21
Writing application : mkvmerge v14.0.0 ('Flow') 64bit
Writing library : libebml v1.3.4 + libmatroska v1.4.5

Video
ID : 1
Format : HEVC
Format/Info : High Efficiency Video Coding
Format profile : Main [email protected]@Main
Codec ID : V_MPEGH/ISO/HEVC
Duration : 1 h 35 min
Bit rate : 4 249 kb/s
Width : 1 920 pixels
Height : 804 pixels
Display aspect ratio : 2.40:1
Frame rate mode : Constant
Frame rate : 23.976 (24000/1001) FPS
Color space : YUV
Chroma subsampling : 4:2:0
Bit depth : 10 bits
Bits/(Pixel*Frame) : 0.115
Stream size : 2.82 GiB (90%)
Writing library : x265 2.5+66-dae558b40d99:[Windows][GCC 7.2.0][64 bit] 10bit
Encoding settings : cpuid=1173503 / frame-threads=3 / numa-pools=8 / wpp / no-pmode / no-pme / no-psnr / no-ssim / log-level=2 / input-csp=1 / input-res=1920x804 / interlace=0 / total-frames=136734 / level-idc=0 / high-tier=1 / uhd-bd=0 / ref=4 / no-allow-non-conformance / no-repeat-headers / annexb / no-aud / no-hrd / info / hash=0 / no-temporal-layers / open-gop / min-keyint=23 / keyint=250 / bframes=4 / b-adapt=2 / b-pyramid / bframe-bias=0 / rc-lookahead=25 / lookahead-slices=4 / scenecut=40 / no-intra-refresh / ctu=64 / min-cu-size=8 / rect / no-amp / max-tu-size=32 / tu-inter-depth=1 / tu-intra-depth=1 / limit-tu=0 / rdoq-level=2 / dynamic-rd=0.00 / no-ssim-rd / signhide / no-tskip / nr-intra=0 / nr-inter=0 / no-constrained-intra / strong-intra-smoothing / max-merge=3 / limit-refs=3 / limit-modes / me=3 / subme=3 / merange=57 / temporal-mvp / weightp / no-weightb / no-analyze-src-pics / deblock=0:0 / sao / no-sao-non-deblock / rd=4 / no-early-skip / rskip / no-fast-intra / no-tskip-fast / no-cu-lossless / no-b-intra / no-splitrd-skip / rdpenalty=0 / psy-rd=2.00 / psy-rdoq=1.00 / no-rd-refine / analysis-reuse-mode=0 / no-lossless / cbqpoffs=0 / crqpoffs=0 / rc=abr / bitrate=4250 / qcomp=0.60 / qpstep=4 / stats-write=0 / stats-read=2 / cplxblur=20.0 / qblur=0.5 / ipratio=1.40 / pbratio=1.30 / aq-mode=3 / aq-strength=1.00 / cutree / zone-count=0 / no-strict-cbr / qg-size=32 / no-rc-grain / qpmax=69 / qpmin=0 / no-const-vbv / sar=0 / overscan=0 / videoformat=5 / range=0 / colorprim=2 / transfer=2 / colormatrix=2 / chromaloc=0 / display-window=0 / max-cll=0,0 / min-luma=0 / max-luma=1023 / log2-max-poc-lsb=8 / vui-timing-info / vui-hrd-info / slices=1 / no-opt-qp-pps / no-opt-ref-list-length-pps / no-multi-pass-opt-rps / scenecut-bias=0.05 / no-opt-cu-delta-qp / no-aq-motion / no-hdr / no-hdr-opt / no-dhdr10-opt / analysis-reuse-level=5 / scale-factor=0 / refine-intra=0 / refine-inter=0 / refine-mv=0 / no-limit-sao / ctu-info=0 / no-lowpass-dct / refine-mv-type=0 / copy-pic=1
Default : Yes
Forced : No

Audio
ID : 2
Format : AAC
Format/Info : Advanced Audio Codec
Format profile : LC
Codec ID : A_AAC
Duration : 1 h 35 min
Bit rate : 457 kb/s
Channel(s) : 6 channels
Channel positions : Front: L C R, Side: L R, LFE
Sampling rate : 48.0 kHz
Frame rate : 46.875 FPS (1024 spf)
Compression mode : Lossy
Delay relative to video : 20 ms
Stream size : 311 MiB (10%)
Language : English
Default : Yes
Forced : No

Text
ID : 3
Format : VobSub
Muxing mode : zlib
Codec ID : S_VOBSUB
Codec ID/Info : Picture based subtitle format used on DVDs
Duration : 1 h 34 min
Bit rate : 10.6 kb/s
Count of elements : 1539
Stream size : 7.19 MiB (0%)
Language : English
Default : No
Forced : No

Menu
00:00:00.000 : en:Chapter 01
00:05:33.875 : en:Chapter 02
00:12:25.619 : en:Chapter 03
00:18:12.633 : en:Chapter 04
00:24:38.852 : en:Chapter 05
00:31:00.775 : en:Chapter 06
00:37:13.648 : en:Chapter 07
00:41:57.014 : en:Chapter 08
00:46:30.788 : en:Chapter 09
00:53:44.554 : en:Chapter 10
01:00:34.213 : en:Chapter 11
01:08:17.051 : en:Chapter 12
01:12:06.405 : en:Chapter 13
01:16:55.485 : en:Chapter 14
01:23:03.561 : en:Chapter 15
01:31:58.554 : en:Chapter 16


Source Information

Code:

Release : Gook.2017.1080p.BluRay.AVC.DTS-HD.MA.5.1-FGT
Complete name : Gook_t01.mkv
File size : 20.5 GiB
Duration : 1 h 35 min
Overall bit rate mode : Variable
Overall bit rate : 30.9 Mb/s


Files:

Gook 2017 (1080p Bluray x265 HEVC 10bit AAC 5.1 Tigole) Featurettes
  • Trailer.mkv (18.3 MB)
  • Gook 2017 (1080p x265 10bit Tigole).mkv (3.1 GB)

Comments

Code:

  • udp://tracker.torrent.eu.org:451/announce
  • udp://tracker.opentrackr.org:1337/announce
  • udp://tracker.coppersurfer.tk:6969/announce