[Kiyome] Kamichu! [Dual Audio BD1080p] [H264-x264] v2

  • Category Anime
  • Type Subbed
  • Language English
  • Total size 14.1 GB
  • Uploaded By DarkRips
  • Downloads 15
  • Last checked 45 minutes ago
  • Date uploaded 3 days ago
  • Seeders 9
  • Leechers 12

Infohash : D53B22F2BBB1E3F48EED12D3B4372868E22302CA

Thanks for downloading, Enjoy your Anime (o˘◡˘o)


Used fansubs this time and made a Signs&Songs track from that. Kept the official subs for those who want them. Fixed some audio codec inconsistency.

Video: Moozzi2

Audio: DVD > Stereo 192kbps AAC CBR

Subs: Fansubs (don't ask whose, I've seen the ones I used labeled as several different groups), Official R1 VOB

Media Info for Ep.1

Format : Matroska
Format version : Version 4 / Version 2
File size : 1 023 MiB
Duration : 26 min 33 s
Overall bit rate mode : Variable
Overall bit rate : 5 386 kb/s
Movie name : Kamichu! 01
Encoded date : UTC 2017-09-15 06:45:08
Writing application : mkvmerge v14.0.0 ('Flow') 64bit
Writing library : libebml v1.3.4 + libmatroska v1.4.5

Video
ID : 1
Format : AVC
Format/Info : Advanced Video Codec
Format profile : [email protected]
Format settings, CABAC : Yes
Format settings, RefFrames : 5 frames
Codec ID : V_MPEG4/ISO/AVC
Duration : 26 min 33 s
Bit rate : 4 490 kb/s
Width : 1 920 pixels
Height : 1 080 pixels
Display aspect ratio : 16:9
Frame rate mode : Variable
Frame rate : 25.557 FPS
Original frame rate : 23.976 (24000/1001) FPS
Color space : YUV
Chroma subsampling : 4:2:0
Bit depth : 8 bits
Scan type : Progressive
Bits/(Pixel*Frame) : 0.085
Stream size : 853 MiB (83%)
Writing library : x264 core 148 r2638 7599210
Encoding settings : cabac=1 / ref=5 / deblock=1:1:1 / analyse=0x3:0x113 / me=umh / subme=9 / psy=1 / psy_rd=0.70:0.00 / mixed_ref=1 / me_range=32 / chroma_me=1 / trellis=0 / 8x8dct=1 / cqm=0 / deadzone=21,11 / fast_pskip=0 / chroma_qp_offset=-2 / threads=12 / lookahead_threads=1 / sliced_threads=0 / nr=0 / decimate=1 / interlaced=0 / bluray_compat=0 / constrained_intra=0 / bframes=3 / b_pyramid=2 / b_adapt=2 / b_bias=0 / direct=1 / weightb=1 / open_gop=0 / weightp=2 / keyint=240 / keyint_min=23 / scenecut=40 / intra_refresh=0 / rc_lookahead=40 / rc=crf / mbtree=1 / crf=18.0 / qcomp=0.70 / qpmin=0 / qpmax=69 / qpstep=4 / ip_ratio=1.40 / aq=1:1.00
Language : Japanese
Default : Yes
Forced : No

Audio #1
ID : 2
Format : AAC
Format/Info : Advanced Audio Codec
Format profile : LC
Codec ID : A_AAC
Duration : 26 min 31 s
Bit rate : 192 kb/s
Channel(s) : 2 channels
Channel positions : Front: L R
Sampling rate : 48.0 kHz
Frame rate : 46.875 FPS (1024 SPF)
Compression mode : Lossy
Delay relative to video : 21 ms
Stream size : 36.4 MiB (4%)
Language : English
Default : Yes
Forced : No

Audio #2
ID : 3
Format : FLAC
Format/Info : Free Lossless Audio Codec
Codec ID : A_FLAC
Duration : 26 min 33 s
Bit rate mode : Variable
Bit rate : 697 kb/s
Channel(s) : 2 channels
Channel positions : Front: L R
Sampling rate : 48.0 kHz
Frame rate : 11.719 FPS (4096 SPF)
Bit depth : 16 bits
Stream size : 132 MiB (13%)
Writing library : libFLAC 1.3.1 (UTC 2014-11-25)
Language : Japanese
Default : No
Forced : No

Text #1
ID : 4
Format : ASS
Codec ID : S_TEXT/ASS
Codec ID/Info : Advanced Sub Station Alpha
Duration : 23 min 49 s
Bit rate : 20 b/s
Count of elements : 56
Compression mode : Lossless
Stream size : 3.51 KiB (0%)
Title : [Signs&Songs]
Language : English
Default : Yes
Forced : No

Text #2
ID : 5
Format : ASS
Codec ID : S_TEXT/ASS
Codec ID/Info : Advanced Sub Station Alpha
Duration : 26 min 15 s
Bit rate : 80 b/s
Count of elements : 339
Compression mode : Lossless
Stream size : 15.5 KiB (0%)
Language : English
Default : No
Forced : No

Text #3
ID : 6
Format : VobSub
Muxing mode : zlib
Codec ID : S_VOBSUB
Codec ID/Info : Picture based subtitle format used on DVDs
Duration : 23 min 37 s
Bit rate : 469 b/s
Count of elements : 24
Stream size : 81.2 KiB (0%)
Title : [Signs&Songs]
Language : English
Default : No
Forced : No

Text #4
ID : 7
Format : VobSub
Muxing mode : zlib
Codec ID : S_VOBSUB
Codec ID/Info : Picture based subtitle format used on DVDs
Duration : 25 min 36 s
Bit rate : 5 285 b/s
Count of elements : 333
Stream size : 991 KiB (0%)
Title : Subs
Language : English
Default : No
Forced : No

Files:

[Kiyome] Kamichu! [Dual Audio BD1080p] [H264-x264] v2
  • Kamichu S01E01.mkv (1,023.0 MB)
  • Kamichu S01E02.mkv (960.5 MB)
  • Kamichu S01E03.mkv (917.4 MB)
  • Kamichu S01E04.mkv (883.7 MB)
  • Kamichu S01E05.mkv (857.1 MB)
  • Kamichu S01E06.mkv (769.0 MB)
  • Kamichu S01E07.mkv (925.4 MB)
  • Kamichu S01E08.mkv (814.5 MB)
  • Kamichu S01E09.mkv (1,005.5 MB)
  • Kamichu S01E10.mkv (820.3 MB)
  • Kamichu S01E11.mkv (977.4 MB)
  • Kamichu S01E12.mkv (929.2 MB)
  • Kamichu S01E13.mkv (765.2 MB)
  • Kamichu S01E14.mkv (767.6 MB)
  • Kamichu S01E15.mkv (975.3 MB)
  • Kamichu S01E16.mkv (1.1 GB)

There are currently no comments. Feel free to leave one :)

Code:

  • http://nyaa.tracker.wf:7777/announce
  • udp://open.stealth.si:80/announce
  • udp://tracker.opentrackr.org:1337/announce
  • udp://tracker.coppersurfer.tk:6969/announce
  • udp://tracker.leechers-paradise.org:6969/announce