A.Ciambra.2017.ITA.AC3-5.1.DVDRip.x264-iCV-CreW

  • Category Movies
  • Type DVD
  • Language Italian
  • Total size 851.3 MB
  • Uploaded By noriegaRJ
  • Downloads 870
  • Last checked 2 days ago
  • Date uploaded 1 week ago
  • Seeders 34
  • Leechers 1

A Ciambra

Drama

Pio Amato, a 14 year-old member of a small Romani community in Calabria, is in a hurry to grow up. Pio follows his older brother Cosimo everywhere and from him he learns how to hustle and how to navigate the streets of his hometown. One night Pio sets out to prove to his brother that he is as good or better than him but, when things go wrong, a series of events will forever change the way he sees the world.

Infohash : 53AF3137FC1546F240723E6F2C0774D92BFAD925

Release: A.Ciambra.2017.ITA.AC3-5.1.DVDRip.x264-iCV-CreW



IMDB: http://www.imdb.com/title/tt6802896/

Subtitle: Italian (hardcoded)

Plot: In A CIAMBRA, a small Romani community in Calabria, Pio Amato is desperate to grow up fast. At 14, he drinks, smokes and is one of the few to easily slide between the region's factions - the local Italians, the African refugees and his fellow Romani. Pio follows his older brother Cosimo everywhere, learning the necessary skills for life on the streets of their hometown. When Cosimo disappears and things start to go wrong, Pio sets out to prove he's ready to step into his big brother's shoes but soon finds himself faced with an impossible decision that will show if he is truly ready to become a man.


Complete name : A.Ciambra.2017.ITA.AC3-5.1.DVDRip.x264-iCV-CreW
Format : Matroska
Format version : Version 4 / Version 2
File size : 851 MiB
Duration : 1h 53mn
Overall bit rate : 1 049 Kbps
Encoded date : UTC 2017-12-10T21:41:49Z
Writing application : HandBrake 1.0.1 2016122900
Writing library : Lavf57.7.2

Video
ID : 1
Format : AVC
Format/Info : Advanced Video Codec
Format profile : [email protected]
Format settings, CABAC : Yes
Format settings, ReFrames : 4 frames
Codec ID : V_MPEG4/ISO/AVC
Duration : 1h 53mn
Bit rate : 644 Kbps
Width : 704 pixels
Height : 368 pixels
Display aspect ratio : 1.913
Frame rate mode : Constant
Frame rate : 25.000 fps
Color space : YUV
Chroma subsampling : 4:2:0
Bit depth : 8 bits
Scan type : Progressive
Bits/(Pixel*Frame) : 0.099
Stream size : 523 MiB (61%)
Writing library : x264 core 148 r2708 86b7198
Encoding settings : cabac=1 / ref=3 / deblock=1:0:0 / analyse=0x1:0x111 / me=hex / subme=7 / psy=1 / psy_rd=1.00:0.00 / mixed_ref=1 / me_range=16 / chroma_me=1 / trellis=1 / 8x8dct=0 / cqm=0 / deadzone=21,11 / fast_pskip=1 / chroma_qp_offset=-2 / threads=11 / lookahead_threads=1 / sliced_threads=0 / nr=0 / decimate=1 / interlaced=0 / bluray_compat=0 / constrained_intra=0 / bframes=3 / b_pyramid=2 / b_adapt=1 / b_bias=0 / direct=1 / weightb=1 / open_gop=0 / weightp=2 / keyint=250 / keyint_min=25 / scenecut=40 / intra_refresh=0 / rc_lookahead=40 / rc=crf / mbtree=1 / crf=21.0 / qcomp=0.60 / qpmin=0 / qpmax=69 / qpstep=4 / vbv_maxrate=14000 / vbv_bufsize=14000 / crf_max=0.0 / nal_hrd=none / filler=0 / ip_ratio=1.40 / aq=1:1.00
Default : Yes
Forced : No

Audio
ID : 2
Format : AC-3
Format/Info : Audio Coding 3
Mode extension : CM (complete main)
Format settings, Endianness : Big
Codec ID : A_AC3
Duration : 1h 53mn
Bit rate mode : Constant
Bit rate : 384 Kbps
Channel count : 6 channels
Channel positions : Front: L C R, Side: L R, LFE
Sampling rate : 48.0 KHz
Bit depth : 16 bits
Compression mode : Lossy
Delay relative to video : -5ms
Stream size : 312 MiB (37%)
Title : Surround
Default : Yes
Forced : No


SCREENSHOTS:




Files:

  • A.Ciambra.2017.ITA.AC3-5.1.DVDRip.x264-iCV-CreW.mkv (851.3 MB)

There are currently no comments. Feel free to leave one :)

Code:

  • udp://tracker.opentrackr.org:1337/announce
  • udp://tracker.coppersurfer.tk:6969/announce
  • udp://tracker.leechers-paradise.org:6969/announce
  • udp://tracker.zer0day.to:1337/announce